[TV-SHOW] GENERATIONS WORLD TOUR 2015 “GENERATION EX” (2018.12.08)

[TV-SHOW] GENERATIONS WORLD TOUR 2015 “GENERATION EX” (2018.12.08)
番組内容 2012年のメジャーデビューから2017年で5周年を迎え、2018年には単独ドームツアーを4会場10公演で開催し観客動員数41万5000人という大成功を収めたGENERATIONS from EXILE TRIBE。彼らが2015年4月4日より国内外で28公演行なった初の単独ツアー「GENERATIONS WORLD TOUR 2015 ”GENERATION EX”」より、

→ Download

[TV-SHOW] 鈴木愛理FCイベント 第1回あいりまにあ会~武道館おつかれ/あっそういえば24歳おめでとう~ (2018.09.28) (DVDISO)

[TV-SHOW] 鈴木愛理FCイベント 第1回あいりまにあ会~武道館おつかれ/あっそういえば24歳おめでとう~ (2018.09.28) (DVDISO)
鈴木愛理のM-line club初のファンクラブイベントがDVDになりました。 ファンの皆さんから歌って欲しい楽曲を募集し、投票が多かった上位30曲の中からその場で抽選し歌ったライブコーナーを中心に、タイトルの通り7月に行われた武道館公演の振り返りや、3ヵ月遅れの誕生日のお祝い・

→ Download

[TV-SHOW] 花澤香菜 – Kana Hanazawa Live 2017 “Opportunity” (2017.09.27) (BDRIP)

[TV-SHOW] 花澤香菜 – Kana Hanazawa Live 2017 “Opportunity” (2017.09.27) (BDRIP)
1. opening 2. スウィンギング・ガール 3. FRIENDS FOREVER 4. 滞空時間 5. カレイドスコープ 6. 透明な女の子 7. Opportunity 8. ざらざら 9. あたらしいうた 10. 星結ぶとき 11. Marmalade Jam 12. brilliant 13. 雲に歌えば 14. FLOWER MARKET 15. Seasons always change 16. Blue Water 17. Merry Go Round

→ Download

[TV-Variety] BOMBER-E – 2018.12.05

[TV-Variety] BOMBER-E – 2018.12.05
今回はM.(ミュージック)ナイト!人気女性アーティスト「あっこゴリラ」&「ロザリーナ」の2組が登場!あっこゴリラのMV撮影秘話に一同驚愕!? ◇番組内容 今回はM.(ミュージック)ナイト。人気女性アーティスト2組が登場! 彼女の創るグルーヴィーなサウンドはジャパニーズラップ界でセンセーショナルな存在に!「あっこゴリラ」!

→ Download

[TV-Variety] うたコン – 2018.12.04

[TV-Variety] うたコン – 2018.12.04
DA PUMPは「U.S.A.」と更にあのヒット曲を!▽氷川・三山、欅坂46・丘のSPコラボ▽「紅白」出場歌手発表会見の裏側映像もたっぷりと▽司会:谷原章介 番組内容 うたコン忘年会!DA PUMPは「U.S.A.」と”あのヒット曲”を披露。スーパー銭湯アイドル「純烈」はザ・ドリフターズの名曲に挑戦!

→ Download

[TV-SHOW] TGC KITAKYUSHU 2018 by TOKYO GIRLS COLLECTION (2018.12.08)

[TV-SHOW] TGC KITAKYUSHU 2018 by TOKYO GIRLS COLLECTION (2018.12.08)
番組情報 ▽東京ガールズコレクションが、福岡県北九州市で開催した「takagi presents TGC KITAKYUSHU 2018 by TOKYO GIRLS COLLECTION」を独占放送! 超特急、DOBERMAN INFINITYらのライブに加え、豪華ゲストによるスペシャルコンテンツ、けやき坂46や乃木坂46のメンバーを含めた40名以上の人気モデルによる最新のファッションショーをお届け。

→ Download

[TV-SHOW] GACKT – TRAINING DAYS IN KOREA D.R.U.G. PARTY ASIA TOUR 2007.01.28-29 (2007.05.30) (DVDRIP…

[TV-SHOW] GACKT – TRAINING DAYS IN KOREA D.R.U.G. PARTY ASIA TOUR 2007.01.28-29 (2007.05.30) (DVDRIP…
Hour-long document of Gackt’s 2007 tour.

→ Download

[TV-SHOW] 欅坂46 – 不協和音 (欅共和国2017) (2018.09.26) (BDRIP)

[TV-SHOW] 欅坂46 – 不協和音 (欅共和国2017) (2018.09.26) (BDRIP)
Duration: 00:04:08.18, start: 0.000000, bitrate: 8399 kb/s Stream #0:0(eng): Video: vp9 (Profile 0), yuv420p(tv), 1920×1080, SAR 1:1 DAR 16:9, 23.98 fps, 23.98 tbr, 1k tbn, 1k tbc (default) Stream #0:1: Audio: vorbis, 48000 Hz, stereo, fltp (default) Live performance of Fukyouwaon from

→ Download

[TV-SHOW] NICO Touches the Walls – TOUR2011 PASSENGER ~We are Passionate Messenger~ (2012.01.21) (DV…

[TV-SHOW] NICO Touches the Walls – TOUR2011 PASSENGER ~We are Passionate Messenger~ (2012.01.21) (DV…
NICO Touches the Walls “TOUR 2011 PASSENGER ~we are passionate messenger~” to Promote the 3rd studio album, “PASSENGER”, released on January, 21, 2012. 1.Rodeo 2.The Bungy 3.容疑者 (Yougisha) 4.Sudden Death Game 5.SURVIVE 6.Page 1 7.君だけ (Kimi Dake) 8.Matryoshka 9.Te wo Tatake 10.友情讃歌

→ Download

[TV-SHOW] GACKT – DIABOLOS ~Aien no Shi to Seiya no Namida~ Live Tour 2005 (2006.03.29) (DVDRIP)

[TV-SHOW] GACKT – DIABOLOS ~Aien no Shi to Seiya no Namida~ Live Tour 2005 (2006.03.29) (DVDRIP)
Gackt’s Diabolos Live Tour 2005, it was also his first ever performance at the Tokyo Dome in support of his eighth full length album Diabolos. Tracklist 01. Dybbuk 02. white eyes 03. Dispar 04. Metamorphoze 05. REDEMPTION 06. Ash 07. Misty 08.

→ Download

[TV-SHOW] SUPER JUNIOR-D&E JAPAN TOUR 2018 ~STYLE~ (2018.12.08)

[TV-SHOW] SUPER JUNIOR-D&E JAPAN TOUR 2018 ~STYLE~ (2018.12.08)
SUPER JUNIOR DONGHAE&EUNHYUKの3年ぶりのツアーを独占放送!インタビュー企画もお届け! <収録>2018年11月9日 ~日本武道館

→ Download

[TV-SHOW] 乃木坂46・若月佑美主演の舞台「鉄コン筋クリート」をテレビ初独占放送! (2018.12.08)

[TV-SHOW] 乃木坂46・若月佑美主演の舞台「鉄コン筋クリート」をテレビ初独占放送! (2018.12.08)
乃木坂46・若月佑美主演の舞台「鉄コン筋クリート」をテレビ初独占放送!

→ Download

[TV-SHOW] CDTV (2018.12.09)

[TV-SHOW] CDTV (2018.12.09)
▼ARTIST FILE.山下智久 先輩とのエピソードとは!?▼キンプリ・RADWIMPS・NMB.12月のDVDエクスプレス!▼コブクロのベストアルバム紹介! ☆ゲスト ♪コブクロ「風」(アルバムレコメンド) ♪SKE48「Stand by you」 ☆コーナー1 ▼ARTIST FILE.山下智久 先輩とのエピソードとは!?アーティスト山下智久の素顔に迫る

→ Download

[TV-SHOW] E-girls LIVE 2017 ~E.G.EVOLUTION~ (2018.12.08)

[TV-SHOW] E-girls LIVE 2017 ~E.G.EVOLUTION~ (2018.12.08)
番組内容 2017年、11人のグループへと形を変え、新たなスタートを切ったE-girls。そんな彼女たちが2017年7月15、16日に19人体制最後となるパフォーマンスを行なったメモリアルなライブ「E-girls LIVE 2017 ~E.G. EVOLUTION~」を放送する。 2011年のデビュー以降、日本のガールズ・グループを牽引する存在として進化した19人のステージは、

→ Download

[TV-Variety] 音力 – 2018.12.07 – 木村カエラ

[TV-Variety] 音力 – 2018.12.07 – 木村カエラ
まもなくデビュー15周年の木村カエラがUSJでハリーポッターの世界を初体験&期間限定のショーに大興奮!▽WEST&BiSH新譜&FANTASTICS鮮烈デビュー 出演者 【MC】 宇都宮まき 野村雅夫(FM802DJ)

→ Download

[TV-Variety] バンドリ! TV – 2018.12.06 – #35

[TV-Variety]  バンドリ! TV – 2018.12.06 – #35
バンドリ! TV – 2018.12.06 – #35

→ Download

[TV-Variety] アニ☆ステ – 2018.12.06

[TV-Variety] アニ☆ステ – 2018.12.06
アニ☆ステ – 2018.12.06

→ Download

[TV-SHOW] NICO Touches the Walls TOUR2011 PASSENGER~We are Passionate Messenger~ (2012.01.21) (DVDIS…

[TV-SHOW] NICO Touches the Walls TOUR2011 PASSENGER~We are Passionate Messenger~ (2012.01.21) (DVDIS…
今年の春~初夏にかけて行われた全国ツアー「TOUR2011 PASSENGER We are Passionate Messenger」最終公演(6/10Zepp Tokyo)の模様を映像化。アルバム「PASSENGER」収録曲全曲収録+α。ツアーの名物場面となったあのシーンや、この夏のアンセムとなった「手をたたけ」初披露シーンも惜しみなく収録!必見。 曲目リスト 1. ロデオ 2. THE BUNGY 3. 容疑者 4. サドンデスゲーム 5. SURVIVE 6. ページ1 7. 君だけ 8. マトリョーシカ 9. 手をたたけ

→ Download

[TV-SHOW] 森久保祥太郎LIVE TOUR 2018 心・裸・晩・唱〜PHASE7〜 (2018.12.05)

[TV-SHOW] 森久保祥太郎LIVE TOUR 2018 心・裸・晩・唱〜PHASE7〜 (2018.12.05)
人気声優でアーティストとしての評価も高い森久保祥太郎の最新ライブツアーから、東京公演の模様に独占インタビュー併せてお届けする< 収録>2018年10月21日

→ Download

[TV-SHOW] U-KISS JAPAN LIVE TOUR ~Burn the SUMMER~ (2018.12.06)

[TV-SHOW] U-KISS JAPAN LIVE TOUR ~Burn the SUMMER~ (2018.12.06)
2018年夏に開催されたツアーファイナルの模様をお届け (2018年8月30日 東京・豊洲PIT) 2018年 105分 放送日:6 出演者 出演:U-KISS 番組内容 ◆LIVEスペシャル◆ 結成10周年を迎えたダンスボーカルグループU-KISS。約2年ぶりとなる夏ツアー「U-KISS JAPAN LIVE TOUR 2018 ~Burn the SUMMER~」から、

→ Download